» » Various - Tokyo By Kenzo Night Vibes - Music Selection By Ninja Tune

Various - Tokyo By Kenzo Night Vibes - Music Selection By Ninja Tune à Télécharger Gratuitement

  • Interprète: Various
  • Titre: Tokyo By Kenzo Night Vibes - Music Selection By Ninja Tune
  • Ver. en format MP3: 2077 mb
  • Ver. en format FLAC: 2917 mb
  • Pays: France
  • Date de publication: 2008
  • Style: Breakbeat, Downtempo, Ambient
  • # Catalogue: PONG-CD03
  • Label: Ninja Tune
  • Classement: 4.8 of 5
  • Genre: Electronique
Various - Tokyo By Kenzo Night Vibes - Music Selection By Ninja Tune à Télécharger Gratuitement

Tracklist

1HomelifeToo Fast
2Kid KoalaSkanpy Panky
3KentaroHatsuyume
4HomelifeWobbly Jack
5BlockheadSunday Seance
6BlockheadInsomniac Olympics
7AmmonContactEarth's Children

Notes

Given with Tokyo by Kenzo fragrance.

Reference: 88446005
Barcode: 3 352810 266518

Album

Most often on , compilation album tracks appear under the name of Various Artists erroneously because the individual artist is not listed in the album's ID3 information. Warning Deleting this artist may remove other artists and scrobbles from your library - please handle with caution Note: You can view albums tagged as 'Various Artists' in your read more. Warning Deleting this artist may remove other artists and scrobbles from your library - please handle with caution . Disc IDs 0. Cover Art 5. Blockhead US hip-hop producer on Ninja Tune tracks 1, 4. recording of: Insomniac Olympics track 4. Sunday Seance track 1. Album Compilation. Status: Promotion. Data Quality: Normal. Ninja Tune PONG-CD03. Release events. France 2008. Kenzo - Night Vision. Лента с персональными рекомендациями и музыкальными новинками, радио, подборки на любой вкус, удобное управление своей коллекцией. Music for Night Travelling, Pt. Исполнитель: Night Vision. Various artists. 2011 incl. 2 DJ-Mixes by Luke Carpenter. Пользовательское соглашение. Music CDs Music All Categories Antiques Art Baby Books, Comics & Magazines Business, Office & Industrial Cameras & Photography Cars, Motorcycles & Vehicles Clothes, Shoes & Accessories Coins Collectables ComputersTablets & Networking Crafts Dolls & Bears DVDs, Films & TV Events Tickets Garden & Patio Health & Beauty Holidays & Travel Home, Furniture & DIY Jewellery & Watches Mobile Phones & Communication Music Musical Instruments Pet Supplies Pottery, Porcelain & Glass Property Sound & Vision Sporting Goods. Artist: Various. The Herbaliser - Blow Your Headphones CD Album Ninja Tune 1997. Genre: Rap & Hip-Hop. Изучите релизы лейбла Ninja Tune. Выясните, что отсутствует в вашей дискографии, и приобретите релизы лейбла Ninja Night On The Planet. 3 Filename D:DownloadsTokyo By Kenzo03 - Peak level 100. 0 Track quality 100. 0 Test CRC 20CF392B Copy CRC 20CF392B Track not present in AccurateRip database Copy OK Track 4 Filename D:DownloadsTokyo By Kenzo04 - Peak level 100. 0 Test CRC D7299413. Copy CRC D7299413 Track not present in AccurateRip database Copy OK Track 5 Filename D:DownloadsTokyo By Kenzo05 - Peak level 100. 0 Test CRC 777CADE8 Copy CRC. Скачать Various - Tokyo By Kenzo Night Vibes - Music Selection By Ninja Tune mp3 release album free and without registration. On this page you can listen to mp3 music free or download album or mp3 track to your PC, Artists - Tokyo By Kenzo Night Vibes - Music Selection By Ninja Tune - 2008, FLAC tracks. cue, lossless. Download via torrent Download via magnet. not logged in. Random Downloads. On this page you can not listen to mp3 music free or download album or mp3 track to your PC, phone or tablet. Buy Various - Tokyo By Kenzo Night Vibes - Music Selection By Ninja Tune from authorized sellers. This album was released on the label Ninja Tune catalog number PONG-CD03. This album was released in 2008 year


En rapport avec Various - Tokyo By Kenzo Night Vibes - Music Selection By Ninja Tune: